Самые активные релизы за неделю
Нет релизов к показу


Популярные персоны кино из торрент-раздачи

:: Детали раздачи
Раздача является мультитрекерной — учтите, количество раздающих не будет совпадать с количеством участников на сайте (скачивание на клиентской стороне зависит от настроек µTorrent клиент программы, настройки -> Включить DHT, Обмен пирами и Поиск лок-х пиров).
Если висит надпись, пиры по нулям - не бойтесь, возможность скачать повторно раздачу - есть. Попробуйте, в случае отказа - прокоментируйте или нажмите на "Позвать скачавших".
Данная раздача является свободной — учитывается только количество отданного, количество скачанного не фиксируется.

Убить с интригой / To Kill With Intrigue (1977) Золотой торрент

Скачать Скачать .torrent файл (основная ссылка для скачивания файла)
Смотреть / Слушать онлайн просмотр (ссылка для просмотра файла через плагин 'Torrent Stream')
Magnet-ссылка (альтернативная ссылка для скачивания файла)
Теги / Метки drama, 1977
Описание
Убить с интригой / To Kill With Intrigue  (1977)
Оригинальное название : To Kill With Intrigue [DVD-5]
Название : Убить с интригой

Трейлер

Год выхода : 1977
Страна : Корея Южная, Гонконг
Жанр : Drama
Режиссер : Вэй Ло
Автор сценариев : Ланг Ку
В ролях : Джеки Чан , Куо Вонг , Хай Лу Чен , Фен Ху
Продолжительность : 1:36:54
Язык : Русский
Перевод : Профессиональный (одноголосный)

О фильме : Женщина, решив отомстить семье человека, который изуродовал ее лицо, пощадила лишь юношу Хсило.
Между ними возникает любовь. Но однажды Хсило внезапно исчезает, узнав, что его близкий друг на самом деле является главой клана "Смертельный дождь".
Бывшие друзья встречаются в смертельной схватке.



MediaInfo


General
Complete name: D:НовыеTo Kill With IntrigueVIDEO_TSVTS_01_1.VOB
Format : MPEG-PS
File size: 1 024 MiB
Duration : 24mn 13s
Overall bit rate : 5 909 Kbps


Video
ID : 224 (0xE0)
Format : MPEG Video
Format version : Version 2
Format profile : [email protected]
Format settings, BVOP: Yes
Format settings, Matrix: Default
Duration : 24mn 13s
Bit rate mode: Variable
Bit rate : 5 408 Kbps
Nominal bit rate : 7 000 Kbps
Width: 720 pixels
Height : 576 pixels
Display aspect ratio : 16:9
Frame rate : 25.000 fps
Standard : PAL
Color space: YUV
Chroma subsampling : 4:2:0
Bit depth: 8 bits
Scan type: Interlaced
Scan order : Bottom Field First
Bits/(Pixel*Frame) : 0.522
Stream size: 937 MiB (92%)


Audio #1
ID : 128 (0x80)
Format : AC-3
Format/Info: Audio Coding 3
Mode extension : CM (complete main)
Duration : 24mn 13s
Bit rate mode: Constant
Bit rate : 192 Kbps
Channel(s) : 2 channels
Channel positions: Front: L R
Sampling rate: 48.0 KHz
Bit depth: 16 bits
Stream size: 33.3 MiB (3%)


Audio #2
ID : 129 (0x81)
Format : AC-3
Format/Info: Audio Coding 3
Mode extension : CM (complete main)
Duration : 24mn 13s
Bit rate mode: Constant
Bit rate : 192 Kbps
Channel(s) : 2 channels
Channel positions: Front: L R
Sampling rate: 48.0 KHz
Bit depth: 16 bits
Stream size: 33.3 MiB (3%)


Text #1
ID : 32 (0x20)
Format : RLE
Format/Info: Run-length encoding


Text #2
ID : 33 (0x21)
Format : RLE
Format/Info: Run-length encoding


Menu


Бонус

скриншоты

Файл
Видео : PAL 16:9 (720x576) VBR 5 909 Kbps
Звук : Dolby AC3, 2 ch 192 Kbps
Субтитры : Да
Скриншоты Убить с интригой / To Kill With Intrigue  (1977)  #0
Связанные раздачи
Загрузка / Обновление
Категория DVD / Фильмы RSS лента
Добавлен (9 лет, 2 месяца назад)
Просмотров 253 раз (a)
Взят 6 раз (a)
Файлы 21, 4.38 GB (4 703 193 003 байт)
Оценка
IMDB: 7.1, 99,644 голоса (ов)
Раздал ViKa  (Искать торренты)
Участники
Скачивают (качают): 0 (1), Завершено: 0 (0)
Просматривают

« Новые приключения Алисы [Новый Диск] [2010 / Русский] [Other] -†- ¿? -†- Евлампия Романова. Следствие ведет дилетант: Маникюр для покойника (2003) »

:: Список Комментариев
Нет комментариев.

 Нет комментариев

Счетчики
Яндекс.Метрика


Поделитесь в социальных сетях


Торрент клиент

Торрент клиент для macOS

Быстрый Поиск





Спасибо Вам
Мы благодарны этим людям в поддержке сайта:
hipis123
Попади и ты в этот блок, поставь оценку 5 и получи 300 MB к отдаче:
Войти на сайт сейчас.

Правообладателям
По всем вопросам сотрудничества, удаления авторских файлов "пачкой", просьба отписаться по адреcу:
[email protected]

Наши группы в VK, OK